<?xml version="1.0" standalone="no"?>
<!DOCTYPE svg PUBLIC "-//W3C//DTD SVG 1.1//EN" "http://www.w3.org/Graphics/SVG/1.1/DTD/svg11.dtd" >
<svg xmlns="http://www.w3.org/2000/svg">
<metadata>
This is a custom SVG font generated by IcoMoon.
<iconset grid="16"></iconset>
</metadata>
<defs>
<font id="Font-Awesome-More" horiz-adv-x="1792" >
<font-face units-per-em="1792" ascent="1541" descent="-251" />
<missing-glyph horiz-adv-x="1792" />
<glyph unicode="&#xf200;" d="M 1451.36,1328.552C 1395.20,1384.872, 1327.328,1413.00, 1248.00,1413.00L 288.00,1413.00 C 208.672,1413.00, 140.832,1384.872, 84.48,1328.552C 28.128,1272.136,0.00,1204.328,0.00,1125.00l0.00-960.00 
	c0.00-79.328, 28.128-147.20, 84.48-203.36C 140.832-94.776, 208.672-123.00, 288.00-123.00l 960.00,0.00 c 79.328,0.00, 147.20,28.224, 203.36,84.64C 1507.776,17.80, 1536.00,85.672, 1536.00,165.00L 1536.00,1125.00 
	C 1536.00,1204.328, 1507.776,1272.136, 1451.36,1328.552z M 623.68,5.00C 386.336,5.00, 192.00,195.304, 192.00,426.376c0.00,163.136, 100.096,313.792, 253.664,380.608l 9.312-124.608
	c-89.632-55.488-145.472-152.896-145.472-258.24c0.00-166.528, 140.768-303.584, 314.176-303.584c 158.272,0.00, 294.368,116.672, 309.536,269.60l 76.768-152.896
	C 936.672,96.744, 785.44,5.00, 623.68,5.00z M 1120.00,133.00l-192.00,416.00L 512.00,549.00 l-47.712,567.232c-9.312,15.872-14.016,33.984-14.016,55.488
	c0.00,62.304, 52.416,113.28, 116.416,113.28s 116.352-50.976, 116.352-113.28c0.00-60.032-47.712-106.176-107.04-110.72l 32.00-224.00l 288.00,0.00 l0.00-128.00 l-256.00,0.00 l0.00-64.00 l 384.00,0.00 l 160.00-384.00l 128.00,64.00l 32.00-96.00L 1120.00,133.00z" horiz-adv-x="1536"  />
<glyph unicode="&#xf201;" d="M 576.704,389.512c0.00-106.592-86.688-193.344-193.216-193.344c-105.984,0.00-192.224,86.752-192.224,193.344c0.00,106.048, 86.208,192.384, 192.224,192.384
	C 490.016,581.864, 576.704,495.56, 576.704,389.512z M 1151.52,581.832c-105.984,0.00-192.256-86.304-192.256-192.416c0.00-106.56, 86.24-193.28, 192.256-193.28
	c 53.504,0.00, 98.24,18.752, 136.80,57.312c 37.952,37.888, 56.416,82.336, 56.416,135.968C 1344.736,495.528, 1258.048,581.832, 1151.52,581.832z M 1536.00,1125.00l0.00-960.00 
	c0.00-79.328-28.224-147.20-84.64-203.36C 1395.20-94.776, 1327.328-123.00, 1248.00-123.00L 288.00-123.00 c-79.328,0.00-147.168,28.224-203.52,84.64C 28.128,17.80,0.00,85.672,0.00,165.00L0.00,1125.00 
	c0.00,79.328, 28.128,147.136, 84.48,203.552C 140.832,1384.872, 208.672,1413.00, 288.00,1413.00l 960.00,0.00 c 79.328,0.00, 147.20-28.128, 203.36-84.448C 1507.776,1272.136, 1536.00,1204.328, 1536.00,1125.00z M 800.00,1093.00
	c0.00-53.088, 43.04-96.00, 96.448-96.00C 948.896,997.00, 992.00,1039.912, 992.00,1093.00c0.00,53.152-43.104,96.00-95.552,96.00c-27.168,0.00-49.664-9.312-68.352-27.936
	C 809.344,1142.408, 800.00,1120.04, 800.00,1093.00z M 640.00,389.512C 640.00,530.824, 525.824,645.00, 383.488,645.00C 242.176,645.00, 128.00,530.824, 128.00,389.512C 128.00,247.176, 242.176,133.00, 383.488,133.00
	C 525.824,133.00, 640.00,247.176, 640.00,389.512z M 894.88,773.00l 188.416,0.00 c 36.896,0.00, 53.952,25.376, 38.784,50.944C 1114.528,836.328, 1101.248,837.00, 1083.296,837.00l-162.848,0.00 
	l-107.008,166.048c-1.92,2.848-4.704,4.768-7.584,9.568c-6.592,7.52-32.16,26.048-57.728,26.048c-23.648,2.784-44.512-5.024-61.568-23.936
	l-205.44-207.008c-14.176-15.136-20.80-33.152-20.80-55.008c0.00-31.264, 10.592-55.136, 38.016-71.232L 704.00,564.84l0.00-219.136 c0.00-31.328, 33.216-56.896, 64.48-56.896
	c 30.304,0.00, 63.52,25.60, 63.52,56.896l0.00,274.144 c0.00,25.12-18.40,53.12-48.704,67.328l-122.208,63.552l 130.176,129.952l 63.168-91.776
	C 865.76,771.816, 878.784,773.00, 894.88,773.00z M 1408.00,389.448C 1408.00,530.824, 1292.864,645.00, 1151.52,645.00S 896.00,530.824, 896.00,389.448C 896.00,248.136, 1010.176,133.00, 1151.52,133.00
	c 70.208,0.00, 131.04,25.248, 181.60,75.808C 1382.752,258.376, 1408.00,319.24, 1408.00,389.448z" horiz-adv-x="1536"  />
<glyph unicode="&#xf202;" d="M 1111.744,701.00l-31.264,239.616C 1075.616,971.848, 1064.864,997.00, 1030.688,997.00l-267.552,0.00 l-257.824,0.00 c-34.176,0.00-44.928-29.024-49.824-60.256
		l-31.264-240.96C 420.352,667.464, 431.104,645.00, 457.44,645.00l 306.656,0.00 l 314.464,0.00 C 1104.896,645.00, 1115.648,672.68, 1111.744,701.00zM 480.864,513.192c-32.224,0.00-57.60-26.40-57.60-57.664c0.00-32.224, 25.376-57.632, 57.60-57.632c 31.264,0.00, 57.664,25.408, 57.664,57.632
		C 538.528,486.792, 512.128,513.192, 480.864,513.192zM 596.128,1029.00l 167.008,0.00 l 176.736,0.00 c 22.464,0.00, 31.264,28.128, 23.424,44.736C 958.432,1082.44, 950.624,1093.00, 939.872,1093.00l-175.776,0.00 l-167.968,0.00 
		c-22.464,0.00-31.264-28.096-22.464-44.672C 577.568,1039.56, 585.376,1029.00, 596.128,1029.00zM 1055.136,513.192c-31.264,0.00-57.632-26.40-57.632-57.664c0.00-32.224, 26.368-57.632, 57.632-57.632c 32.224,0.00, 57.60,25.408, 57.60,57.632
		C 1112.704,486.792, 1087.328,513.192, 1055.136,513.192zM 1451.36,1328.552C 1395.20,1384.872, 1327.328,1413.00, 1248.00,1413.00L 288.00,1413.00 C 208.672,1413.00, 140.832,1384.872, 84.48,1328.552C 28.128,1272.136,0.00,1204.328,0.00,1125.00l0.00-960.00 
		c0.00-79.328, 28.128-147.20, 84.48-203.36C 140.832-94.776, 208.672-123.00, 288.00-123.00l 960.00,0.00 c 79.328,0.00, 147.20,28.224, 203.36,84.64C 1507.776,17.80, 1536.00,85.672, 1536.00,165.00L 1536.00,1125.00 
		C 1536.00,1204.328, 1507.776,1272.136, 1451.36,1328.552z M 1184.00,261.00l-64.00,0.00 l0.00-66.208 c0.00-26.336-13.728-43.936-34.24-54.656C 1045.76,119.592, 992.00,143.016, 992.00,194.792L 992.00,261.00 
		l-227.904,0.00 l-0.96,0.00 L 544.00,261.00 l0.00-66.208 c0.00-26.336-13.696-43.936-33.28-54.656C 470.72,119.592, 416.00,143.016, 416.00,194.792L 416.00,261.00 l-64.00,0.00 L 352.00,692.84 l 39.968,312.512
		c 10.816,51.744, 38.912,77.152, 100.512,101.568c 55.616,23.424, 184.48,48.832, 275.296,49.824c 90.848-0.96, 219.456-26.368, 275.168-49.824
		c 61.536-24.416, 90.272-49.824, 101.088-101.568L 1184.00,692.84L 1184.00,261.00 z" horiz-adv-x="1536"  />
<glyph unicode="&#xf203;" d="M 1536.00,1125.00l0.00-960.00 c0.00-79.328-28.224-147.20-84.64-203.36C 1395.20-94.776, 1327.328-123.00, 1248.00-123.00L 288.00-123.00 c-79.328,0.00-147.168,28.224-203.52,84.64
	C 28.128,17.80,0.00,85.672,0.00,165.00L0.00,1125.00 c0.00,79.328, 28.128,147.136, 84.48,203.552C 140.832,1384.872, 208.672,1413.00, 288.00,1413.00l 960.00,0.00 c 79.328,0.00, 147.20-28.128, 203.36-84.448
	C 1507.776,1272.136, 1536.00,1204.328, 1536.00,1125.00z M 768.00,727.208L 768.00,727.208L 415.104,727.208 l 67.392,176.128c 9.344,29.28, 25.856,43.424, 49.472,43.424L 768.00,946.76 l0.00,0.00l 234.784,0.00 
	c 24.864,0.00, 41.376-14.144, 50.72-43.424l 67.392-176.128L 768.00,727.208 z M 470.56,563.976c0.00-42.144-34.208-77.504-75.424-77.504
	c-41.376,0.00-75.552,35.328-75.552,77.504c0.00,42.304, 34.176,76.352, 75.552,76.352c 19.968,0.00, 37.792-7.04, 53.024-22.304
	C 463.52,602.696, 470.56,585.096, 470.56,563.976z M 1216.448,563.976c0.00-42.144-34.176-77.504-75.552-77.504c-42.432,0.00-75.424,35.328-75.424,77.504
	c0.00,42.304, 32.992,76.352, 75.424,76.352C 1182.24,640.328, 1216.448,606.28, 1216.448,563.976z M 1214.016,722.472l-89.696,226.56
	C 1104.384,1001.928, 1062.976,1029.00, 1002.784,1029.00l-126.144,0.00 l-215.968,0.00 l-127.424,0.00 c-60.192,0.00-101.60-27.072-121.568-79.968l-89.696-226.56
	C 278.272,716.648, 224.00,669.736, 224.00,599.24l0.00-288.80 l 87.36,0.00 l0.00-92.672 c0.00-35.296, 14.048-59.872, 41.216-74.016c 54.336-29.344, 121.60,3.584, 121.60,74.016l0.00,92.672 L 768.00,310.44 l0.00,0.00
	l 293.824,0.00 l0.00-92.672 c0.00-35.296, 14.144-59.872, 41.28-74.016c 54.272-29.344, 121.536,3.584, 121.536,74.016l0.00,92.672 L 1312.00,310.44 L 1312.00,599.24 
	C 1312.00,669.736, 1257.696,716.648, 1214.016,722.472z" horiz-adv-x="1536"  />
<glyph unicode="&#xf204;" d="M 1536.00,1125.00l0.00-960.00 c0.00-79.328-28.224-147.20-84.64-203.36C 1395.20-94.776, 1327.328-123.00, 1248.00-123.00L 288.00-123.00 c-79.328,0.00-147.168,28.224-203.52,84.64
	C 28.128,17.80,0.00,85.672,0.00,165.00L0.00,1125.00 c0.00,79.328, 28.128,147.136, 84.48,203.552C 140.832,1384.872, 208.672,1413.00, 288.00,1413.00l 960.00,0.00 c 79.328,0.00, 147.20-28.128, 203.36-84.448
	C 1507.776,1272.136, 1536.00,1204.328, 1536.00,1125.00z M 768.00,746.984L 768.00,746.984L 415.104,746.984 l 67.392,181.984c 9.344,30.272, 25.856,44.896, 49.472,44.896L 768.00,973.864 l0.00,0.00l 234.784,0.00 
	c 24.864,0.00, 41.376-14.624, 50.72-44.896l 67.392-181.984L 768.00,746.984 z M 470.56,578.312c0.00-43.552-34.208-80.064-75.424-80.064
	c-41.376,0.00-75.552,36.512-75.552,80.064c0.00,43.712, 34.176,78.88, 75.552,78.88c 19.968,0.00, 37.792-7.264, 53.024-23.072
	C 463.52,618.312, 470.56,600.168, 470.56,578.312z M 1216.448,578.312c0.00-43.552-34.176-80.064-75.552-80.064c-42.432,0.00-75.424,36.512-75.424,80.064
	c0.00,43.712, 32.992,78.88, 75.424,78.88C 1182.24,657.192, 1216.448,622.024, 1216.448,578.312z M 1214.016,742.088l-89.696,234.112
	c-19.968,54.624-61.376,82.56-121.568,82.56l-126.144,0.00 l0.00,61.76 c0.00,24.352-11.904,36.48-34.336,36.48L 768.00,1157.00 l0.00,0.00l-73.152,0.00 c-22.40,0.00-34.176-12.128-34.176-36.48l0.00-61.76 
	l-127.424,0.00 c-60.192,0.00-101.60-27.936-121.568-82.56l-89.696-234.112C 278.272,736.072, 224.00,687.592, 224.00,614.792l0.00-298.432 l 87.36,0.00 l0.00-95.744 
	c0.00-36.512, 14.048-61.92, 41.216-76.544c 54.336-30.272, 121.60,3.68, 121.60,76.544l0.00,95.744 L 768.00,316.36 l0.00,0.00l 293.824,0.00 l0.00-95.744 c0.00-36.512, 14.144-61.92, 41.28-76.544
	c 54.272-30.272, 121.536,3.68, 121.536,76.544l0.00,95.744 L 1312.00,316.36 l0.00,298.432 C 1312.00,687.592, 1257.696,736.072, 1214.016,742.088z" horiz-adv-x="1536"  />
<glyph unicode="&#xf205;" d="M 1536.00,1125.00l0.00-960.00 c0.00-79.328-28.224-147.20-84.64-203.36C 1395.20-94.776, 1327.328-123.00, 1248.00-123.00L 288.00-123.00 c-79.328,0.00-147.168,28.224-203.52,84.64
	C 28.128,17.80,0.00,85.672,0.00,165.00L0.00,1125.00 c0.00,79.328, 28.128,147.136, 84.48,203.552C 140.832,1384.872, 208.672,1413.00, 288.00,1413.00l 960.00,0.00 c 79.328,0.00, 147.20-28.128, 203.36-84.448
	C 1507.776,1272.136, 1536.00,1204.328, 1536.00,1125.00z M 1110.016,1157.00L 425.984,1157.00 C 383.008,1157.00, 352.00,1129.256, 352.00,1086.76l0.00-489.248 L 416.00,645.00l0.00,160.00 c 7.008,62.24, 72.00,96.00, 136.00,96.00l 432.00,0.00 
	c 64.00,0.00, 128.992-33.76, 136.00-96.00l0.00-160.00 l 64.00-47.488L 1184.00,1086.76 C 1184.00,1129.256, 1152.992,1157.00, 1110.016,1157.00z M 1056.00,773.00c-4.00,43.488-20.00,64.00-64.00,64.00L 544.00,837.00 
	c-44.00,0.00-60.00-20.512-64.00-64.00l0.00-160.00 l-128.00-96.00l0.00-224.00 l 32.00,0.00 l0.00-96.80 C 384.00,157.672, 424.992,133.00, 464.00,133.00s 80.00,24.672, 80.00,63.20L 544.00,293.00 l 448.00,0.00 l0.00-96.80 
	C 992.00,157.672, 1032.992,133.00, 1072.00,133.00s 80.00,24.672, 80.00,63.20L 1152.00,293.00 l 32.00,0.00 l0.00,224.00 l-128.00,96.00L 1056.00,773.00 z M 448.576,389.00C 413.536,389.00, 384.00,417.448, 384.00,453.576
	C 384.00,488.552, 413.536,517.00, 448.576,517.00c 17.504,0.00, 32.80-6.56, 44.832-18.56C 505.44,486.376, 512.00,471.048, 512.00,453.576C 512.00,417.448, 483.552,389.00, 448.576,389.00z
	 M 896.00,389.00l-256.00,0.00 l0.00,108.288 C 640.00,507.144, 647.328,517.00, 657.312,517.00l 220.672,0.00 C 888.00,517.00, 896.00,507.144, 896.00,497.288L 896.00,389.00 z M 512.00,645.00l0.00,96.00 c 3.008,22.72, 8.992,32.00, 32.00,32.00l 448.00,0.00 
	c 23.008,0.00, 28.992-9.28, 32.00-32.00l0.00-96.00 L 512.00,645.00 z M 1152.00,453.576C 1152.00,417.448, 1123.328,389.00, 1088.00,389.00s-64.00,28.448-64.00,64.576C 1024.00,488.552, 1052.672,517.00, 1088.00,517.00
	S 1152.00,488.552, 1152.00,453.576z" horiz-adv-x="1536"  />
<glyph unicode="&#xf206;" d="M 127.904,5.032L 1152.00,5.032 l0.00,768.00 L 735.968,773.032 c-26.656,0.00-49.312,9.28-68.032,27.968c-18.624,18.688-27.968,41.312-27.968,68.032L 639.968,1285.00 L 127.904,1285.00 L 127.904,5.032 z
	 M 768.00,900.968l 298.944,0.00 L 768.00,1200.008L 768.00,900.968 z M 1279.936,773.032L 1279.936-27.00 c0.00-26.656-9.28-49.344-27.968-68.032C 1233.28-113.656, 1210.656-123.00, 1183.936-123.00L 96.00-123.00 
	c-26.72,0.00-49.344,9.344-68.032,27.968C 9.28-76.344,0.00-53.656,0.00-27.00L0.00,1317.00 c0.00,26.592, 9.28,49.344, 27.968,68.00C 46.656,1403.592, 69.28,1413.00, 96.00,1413.00l 543.968,0.00 
	c 26.656,0.00, 56.032-6.656, 87.968-20.00c 32.032-13.408, 57.344-29.344, 76.064-48.00l 408.00-408.032c 18.624-18.624, 34.656-43.936, 48.00-75.968
	C 1273.312,828.968, 1279.936,799.688, 1279.936,773.032zM 598.08,901.00c-34.432,0.00-63.008-19.68-71.168-49.312c-14.816-55.936-1.568-133.888, 23.52-233.344l-2.944-7.296
	c-18.048-44.928-41.536-91.84-60.448-129.664l-2.56-5.12c-18.784-37.632-36.64-71.328-53.088-100.352l-10.176-5.568
	c-1.408-0.704-33.824-18.24-41.248-22.848c-69.504-42.40-114.176-91.072-122.656-133.344c-5.248-26.144, 4.384-50.656, 25.792-63.04l 17.60-9.088
	C 312.544,136.072, 325.056,133.00, 337.952,133.00c 55.904,0.00, 109.792,54.016, 184.864,185.824c 73.248,23.744, 155.232,43.584, 228.192,55.328
	c 64.512-35.296, 139.904-58.656, 190.496-58.656c 11.20,0.00, 21.088,1.12, 29.44,3.424c 16.32,4.384, 30.016,14.208, 38.688,27.488
	c 12.256,18.912, 16.80,44.544, 13.12,74.08c-2.336,17.824-15.136,30.56-18.816,34.176C 983.552,475.176, 947.328,485.00, 889.856,485.00l-5.088,0.00 
	c-29.952,0.00-64.768-1.568-101.28-6.368c-13.312,8.128-27.232,17.504-37.952,27.776c-34.784,33.152-64.256,79.264-83.584,129.888
	c 0.608,2.56, 1.184,5.376, 1.888,8.416c 1.472,8.704, 10.272,60.864, 14.944,109.952c-11.968,6.016-23.296,13.568-33.408,23.68
	c-7.584,7.616-13.632,15.936-18.944,24.608c 1.024-8.032, 1.664-16.544, 1.824-24.864c 0.672-33.984-7.136-57.92-16.768-75.52
	c-8.00,26.144-11.84,67.36-11.84,94.336c0.00,0.00-0.608,51.488, 5.888,51.488c 1.60,0.00, 3.104-0.608, 4.576-1.472C 608.864,854.088, 608.00,861.384, 608.00,869.032
	L 608.00,900.68 C 604.352,900.776, 598.08,901.00, 598.08,901.00z M 328.416,196.488c 8.00,22.368, 39.616,66.528, 86.40,105.632c 2.976,2.464, 10.208,9.44, 16.832,15.84
	C 382.72,238.28, 349.984,206.536, 328.416,196.488z M 889.696,417.00c 25.792,0.00, 33.408,0.096, 58.528-6.432c 25.184-6.56, 25.504-19.904, 21.184-22.624
	c-4.288-2.688-16.672-4.352-24.64-4.352c-25.696,0.00-57.376,11.968-101.888,31.488C 859.968,416.328, 875.648,417.00, 889.696,417.00z M 606.72,560.072
	c 23.808-44.256, 53.44-81.856, 88.256-112.00c 4.32-3.776, 8.96-7.52, 13.824-11.296c-70.88-14.336-132.064-31.808-185.984-52.896
	c 9.76,17.984, 20.00,36.864, 30.432,56.992C 578.72,489.928, 594.752,528.392, 606.72,560.072z" horiz-adv-x="1248"  />
<glyph unicode="&#xf207;" d="M 127.904,5.032L 1152.00,5.032 l0.00,768.00 L 735.968,773.032 c-26.656,0.00-49.312,9.28-68.032,27.968c-18.624,18.688-27.968,41.312-27.968,68.032L 639.968,1285.00 L 127.904,1285.00 L 127.904,5.032 z
	 M 768.00,900.968l 298.944,0.00 L 768.00,1200.008L 768.00,900.968 z M 1279.936,773.032L 1279.936-27.00 c0.00-26.656-9.28-49.344-27.968-68.032C 1233.28-113.656, 1210.656-123.00, 1183.936-123.00L 96.00-123.00 
	c-26.72,0.00-49.344,9.344-68.032,27.968C 9.28-76.344,0.00-53.656,0.00-27.00L0.00,1317.00 c0.00,26.592, 9.28,49.344, 27.968,68.00C 46.656,1403.592, 69.28,1413.00, 96.00,1413.00l 543.968,0.00 
	c 26.656,0.00, 56.032-6.656, 87.968-20.00c 32.032-13.408, 57.344-29.344, 76.064-48.00l 408.00-408.032c 18.624-18.624, 34.656-43.936, 48.00-75.968
	C 1273.312,828.968, 1279.936,799.688, 1279.936,773.032z M 932.224,741.00l-180.512,0.00 l-127.744-185.088L 496.224,741.00l-180.48,0.00 l 216.352-318.208L 287.968,69.00l 349.888,0.00 l0.00,120.192 
	l-80.736,0.00 l 66.88,98.432L 772.608,69.00l 187.36,0.00 L 715.84,422.792L 932.224,741.00z" horiz-adv-x="1280"  />
<glyph unicode="&#xf208;" d="M 127.904,5.032L 1152.00,5.032 l0.00,768.00 L 735.968,773.032 c-26.656,0.00-49.312,9.28-68.032,27.968c-18.624,18.688-27.968,41.312-27.968,68.032L 639.968,1285.00 L 127.904,1285.00 L 127.904,5.032 z
	 M 768.00,900.968l 298.944,0.00 L 768.00,1200.008L 768.00,900.968 z M 1279.936,773.032L 1279.936-27.00 c0.00-26.656-9.28-49.344-27.968-68.032C 1233.28-113.656, 1210.656-123.00, 1183.936-123.00L 96.00-123.00 
	c-26.72,0.00-49.344,9.344-68.032,27.968C 9.28-76.344,0.00-53.656,0.00-27.00L0.00,1317.00 c0.00,26.592, 9.28,49.344, 27.968,68.00C 46.656,1403.592, 69.28,1413.00, 96.00,1413.00l 543.968,0.00 
	c 26.656,0.00, 56.032-6.656, 87.968-20.00c 32.032-13.408, 57.344-29.344, 76.064-48.00l 408.00-408.032c 18.624-18.624, 34.656-43.936, 48.00-75.968
	C 1273.312,828.968, 1279.936,799.688, 1279.936,773.032zM 729.568,312.232l 264.32,0.00 C 973.088,209.96, 882.72,133.00, 774.336,133.00c-123.712,0.00-224.00,100.288-224.00,224.00c0.00,108.384, 76.96,198.752, 179.232,219.488L 729.568,312.232 z
	 M 863.968,670.632c 123.68,0.00, 224.00-100.32, 224.00-224.00c0.00-15.36-1.60-30.368-4.512-44.832l-264.32,0.00 L 819.136,666.12 C 833.632,669.064, 848.64,670.632, 863.968,670.632zM 191.968,643.40L 479.968,643.40L 479.968,546.792L 191.968,546.792zM 191.968,432.456L 479.968,432.456L 479.968,342.344L 191.968,342.344zM 191.968,228.008L 479.968,228.008L 479.968,131.40L 191.968,131.40z" horiz-adv-x="1280"  />
<glyph unicode="&#xf209;" d="M 127.904,5.032L 1152.00,5.032 l0.00,768.00 L 735.968,773.032 c-26.656,0.00-49.312,9.28-68.032,27.968c-18.624,18.688-27.968,41.312-27.968,68.032L 639.968,1285.00 L 127.904,1285.00 L 127.904,5.032 z
	 M 768.00,900.968l 298.944,0.00 L 768.00,1200.008L 768.00,900.968 z M 1279.936,773.032L 1279.936-27.00 c0.00-26.656-9.28-49.344-27.968-68.032C 1233.28-113.656, 1210.656-123.00, 1183.936-123.00L 96.00-123.00 
	c-26.72,0.00-49.344,9.344-68.032,27.968C 9.28-76.344,0.00-53.656,0.00-27.00L0.00,1317.00 c0.00,26.592, 9.28,49.344, 27.968,68.00C 46.656,1403.592, 69.28,1413.00, 96.00,1413.00l 543.968,0.00 
	c 26.656,0.00, 56.032-6.656, 87.968-20.00c 32.032-13.408, 57.344-29.344, 76.064-48.00l 408.00-408.032c 18.624-18.624, 34.656-43.936, 48.00-75.968
	C 1273.312,828.968, 1279.936,799.688, 1279.936,773.032z M 804.48,620.488l 56.96,0.00 l-65.696-296.992l-85.44,417.536l-137.152,0.00 l-99.328-417.536L 399.36,741.032
	L 255.968,741.032 L 401.60,69.00l 140.192,0.00 l 98.176,397.44L 727.84,69.00l 129.184,0.00 l 166.944,672.032L 804.48,741.032 L 804.48,620.488 z" horiz-adv-x="1280"  />
<glyph unicode="&#xf20a;" d="M 127.936,5.032l 1024.096,0.00 l0.00,768.00 L 736.00,773.032 c-26.656,0.00-49.312,9.28-68.032,27.968C 649.344,819.688, 640.00,842.312, 640.00,869.032L 640.00,1285.00 L 127.936,1285.00 L 127.936,5.032 z
	 M 768.032,900.968l 298.944,0.00 l-298.944,299.04L 768.032,900.968 z M 1279.968,773.032L 1279.968-27.00 c0.00-26.656-9.28-49.344-27.968-68.032C 1233.312-113.656, 1210.688-123.00, 1183.968-123.00
	L 96.032-123.00 c-26.72,0.00-49.344,9.344-68.032,27.968C 9.312-76.344, 0.032-53.656, 0.032-27.00L 0.032,1317.00 c0.00,26.592, 9.28,49.344, 27.968,68.00
	C 46.688,1403.592, 69.312,1413.00, 96.032,1413.00L 640.00,1413.00 c 26.656,0.00, 56.032-6.656, 87.968-20.00c 32.032-13.408, 57.344-29.344, 76.064-48.00l 408.00-408.032
	c 18.624-18.624, 34.656-43.936, 48.00-75.968C 1273.344,828.968, 1279.968,799.688, 1279.968,773.032zM 384.00,645.00l0.00-128.00 L 256.00,517.00 l0.00-341.344 C 256.00,152.136, 275.136,133.00, 298.688,133.00l 170.656,0.00 C 492.864,133.00, 512.00,152.136, 512.00,175.656L 512.00,517.00 l0.00,128.00 L 384.00,645.00 z M 448.00,261.00l-128.00,0.00 l0.00,128.00 l 128.00,0.00 L 448.00,261.00 z M 384.00,645.00L 256.00,645.00 
	l0.00,128.00 l 128.00,0.00 L 384.00,645.00 z M 512.00,773.00l-128.00,0.00 l0.00,128.00 l 128.00,0.00 L 512.00,773.00 z M 384.00,901.00L 256.00,901.00 l0.00,128.00 l 128.00,0.00 L 384.00,901.00 z M 512.00,1029.00l-128.00,0.00 l0.00,128.00 l 128.00,0.00 L 512.00,1029.00 z" horiz-adv-x="1280"  />
<glyph unicode="&#xf20b;" d="M0.00,1413.00l 139.712-1497.664L 766.944-251.00l 629.12,166.56L 1536.00,1413.00L0.00,1413.00 z M 1199.904,912.20l-0.576,0.00 L 768.00,727.048l 415.68,0.00 l-49.056-555.328l-366.112-102.656
	L 768.192,69.00l-0.224,0.00 L 767.68,69.00 l-366.496,102.752l-25.024,284.128l 179.584,0.00 l 12.80-144.48l 199.136-54.304l 0.512,0.256l 199.20,54.272l 20.736,234.496L 368.128,546.12 
	l-12.384,180.928L 800.00,912.20L 351.008,912.20 L 320.00,1093.00l 896.00,0.00 L 1199.904,912.20z" horiz-adv-x="1536"  />
<glyph unicode="&#xf20c;" d="M0.00,1413.00l 139.712-1497.664L 766.944-251.00l 629.12,166.56L 1536.00,1413.00L0.00,1413.00 z M 1199.904,912.20l-0.576,0.00 L 515.584,912.20 l 16.224-185.12L 1183.68,727.08 l-49.056-555.328
	l-366.112-102.656L 768.192,69.00l-0.224,0.00 L 767.68,69.00 l-366.496,102.752l-25.024,284.128l 179.584,0.00 l 12.80-144.48l 199.136-54.304l 0.512,0.256l 199.20,54.272
	l 20.736,234.496L 368.128,546.12 L 320.00,1093.00l 896.00,0.00 L 1199.904,912.20z" horiz-adv-x="1536"  />
<glyph unicode="&#xf20d;" d="M 1627.136,1035.208L 861.824,1406.184C 852.448,1410.728, 842.208,1413.00, 832.00,1413.00s-20.448-2.272-29.824-6.816L 36.864,1035.208
		c-22.624-10.944-36.832-33.344-36.832-57.824c0.00-24.512, 14.24-46.88, 36.832-57.824L 802.176,548.68c 9.376-4.576, 19.584-6.816, 29.824-6.816
		s 20.448,2.24, 29.824,6.816l 765.312,370.912c 22.592,10.944, 36.832,33.312, 36.832,57.824C 1663.968,1001.864, 1649.728,1024.296, 1627.136,1035.208zM 36.832,587.176l 765.344-370.976c 9.376-4.576, 19.584-6.816, 29.824-6.816s 20.448,2.24, 29.824,6.816l 765.344,370.976
		C 1649.76,598.12, 1664.00,620.488, 1664.00,645.00c0.00,24.48-14.24,46.848-36.80,57.792l-34.112,16.544c-9.376,4.608-19.616,6.88-29.856,6.88
		s-20.448-2.272-29.824-6.848L 832.00,379.304L 130.56,719.336c-9.376,4.576-19.616,6.848-29.824,6.848c-10.208,0.00-20.448-2.272-29.856-6.88
		l-34.08-16.544C 14.24,691.848,0.00,669.48,0.00,645.00C0.00,620.488, 14.24,598.12, 36.832,587.176zM 1627.072,370.408l-34.048,16.512c-9.344,4.544-19.552,6.816-29.792,6.816s-20.448-2.272-29.824-6.816L 832.00,46.92L 130.56,386.92
		c-9.376,4.544-19.616,6.816-29.824,6.816s-20.416-2.272-29.792-6.816l-34.016-16.512c-22.592-10.912-36.864-33.28-36.864-57.792
		c0.00-24.48, 14.24-46.912, 36.832-57.856l 765.312-370.976C 811.552-120.728, 821.792-123.00, 832.00-123.00s 20.448,2.272, 29.824,6.816l 765.28,370.976
		c 22.592,10.944, 36.832,33.376, 36.832,57.824C 1663.936,337.096, 1649.664,359.464, 1627.072,370.408z" horiz-adv-x="1664"  />
<glyph unicode="&#xf20e;" d="M 1637.856,1042.504l-390.08,233.408c-18.048,12.128-36.064,12.128-55.072,0.00L 832.448,1058.12L 471.328,1275.912c-19.008,12.128-37.024,12.128-55.072,0.00
	L 26.208,1042.504C 9.024,1032.104,0.00,1016.488,0.00,995.656l0.00-935.36 c0.00-19.936, 9.024-36.416, 28.00-47.68c 18.08-9.60, 36.128-9.60, 55.104,0.80l 360.224,216.96
	l 361.152-216.96c 18.976-11.232, 36.992-11.232, 55.968,0.00l 360.256,216.96l 361.152-216.96c 8.128-5.152, 18.048-7.744, 28.00-7.744
	c 8.128,0.00, 17.12,2.592, 27.072,6.944C 1654.976,23.88, 1664.00,39.464, 1664.00,60.296l0.00,935.36 C 1664.00,1016.488, 1654.976,1032.104, 1637.856,1042.504z M 390.016,1132.712
	l0.00-807.776 l-280.768-168.352L 109.248,964.392 L 390.016,1132.712z M 777.408,964.392l0.00-807.808 l-279.904,168.352L 497.504,1132.712 L 777.408,964.392z M 1166.496,1132.712l0.00-807.776 
	l-279.904-168.352L 886.592,964.392 L 1166.496,1132.712z M 1555.584,964.392l0.00-807.808 l-280.704,168.352L 1274.88,1132.712 L 1555.584,964.392z"  />
<glyph unicode="&#xf210;" d="M 659.36,407.24c-66.144,66.176-98.688,144.672-98.688,237.76c0.00,185.024, 151.392,336.448, 336.448,336.448S 1232.448,830.024, 1232.448,645.00
	s-150.272-336.448-335.328-336.448C 804.064,308.552, 725.568,341.096, 659.36,407.24z M 1673.152,1093.544L 897.12,1093.544 c-188.416,0.00-352.128-116.64-418.272-285.952
	L 228.768,1241.64C 395.872,1428.872, 635.84,1541.00, 897.12,1541.00C 1221.216,1541.00, 1512.736,1366.088, 1673.152,1093.544z M 897.12,197.576c 24.672,0.00, 47.136,1.12, 67.296,4.48
	l-251.232-433.984c-201.824,41.504-383.488,154.784-509.088,308.416C 78.496,228.968,0.00,433.064,0.00,645.00c0.00,160.352, 40.352,309.504, 120.00,448.544l 385.76-667.232
	C 583.136,287.272, 731.168,197.576, 897.12,197.576z M 1193.184,981.448l 533.792,0.00 C 1770.72,873.768, 1792.00,761.64, 1792.00,645.00
	c0.00-242.208-100.896-473.216-261.312-633.568C 1370.368-148.952, 1139.36-251.00, 897.12-251.00l 384.64,667.232c 41.504,70.656, 62.816,146.944, 62.816,228.768
	C 1344.576,776.232, 1287.36,896.20, 1193.184,981.448z"  />
<glyph unicode="&#xf211;" d="M 1767.424,821.448l 20.864,133.344c 0.96-6.976, 1.984-17.92, 2.976-30.848c 1.984-27.84,0.00-125.376-8.928-208.00
	c-8.928-83.584-34.816-211.968-73.664-315.424c-39.808-103.52-110.432-224.928-199.008-314.496c-88.608-89.568-224.928-169.184-384.16-208.96
	c-58.72-12.928-112.48-20.896-163.20-23.904c-0.992,0.00-3.008,0.00-6.016,0.00c-2.976-0.96-5.984-0.96-6.976-0.96c-47.744-4.00-95.488-4.00-142.304,0.00
	c-273.664,20.864-507.52,164.192-658.784,423.936c-72.64,125.376-112.448,243.808-120.416,355.296c-4.96-30.88-10.944-61.728-10.944-74.656l-0.992-8.928
	c-8.96,130.336, 0.992,238.848, 27.872,324.416c-16.928-30.848-32.832-69.664-39.808-86.56L0.00,772.68c 18.912,106.464, 43.776,189.056, 72.672,247.776
	c0.00,4.96, 4.00,14.944, 11.936,29.888c 7.968,14.912, 18.912,31.808, 31.84,49.728l0.00,9.984 c-4.992,82.592, 7.968,159.232, 25.888,203.04
	c 17.92,43.776, 40.80,77.60, 53.728,90.56c 6.976,6.944, 9.984,9.952, 10.976,9.952l0.00-0.992 c 1.984-54.752, 30.848-108.48, 87.552-159.232
	c 12.928-3.008, 25.888-4.96, 37.856-4.96c 60.672,12.928, 121.408,11.936, 183.072-4.00c 38.848,49.792, 100.576,82.592, 185.12,97.536
	c 33.856,4.96, 50.752,5.984, 51.744,1.984l0.00-0.96 c-68.672-38.816-108.48-96.544-121.408-171.168c 8.928-20.896, 19.904-41.824, 51.744-62.72
	c 14.944-10.944, 31.84-15.936, 48.768-15.936l 77.60,0.00 l0.00,0.00c 38.816-0.96, 59.712-4.96, 61.728-10.944c 0.992,0.00, 0.992-0.992, 0.992-1.984l0.00,0.00l0.00-0.992 
	c0.00-1.984,0.00-2.976, 0.992-3.968l0.00-8.928 l0.00-0.992 l0.00-3.968 l0.00-0.992 c-0.992-0.992-0.992-0.992-0.992-1.984l0.00-1.984 l0.00-0.992 
	c-0.992-21.92-9.984-38.816-26.88-51.744l-0.992-0.992c-0.992-0.992-0.992-0.992-1.984-0.992c-0.992-0.992-0.992-0.992-0.992-1.984
	c-0.96,0.00-2.976-0.992-5.984-2.976c-6.976-4.00-18.912-10.976-27.872-17.952c-50.752-30.848-108.48-70.624-112.448-83.552l0.00,0.00l0.00-1.984 l-0.992,0.00 
	c 11.936-35.84, 19.904-83.584, 14.944-90.56c 0.992-12.928, 0.992-24.864,0.00-33.856c-24.864,13.952-51.744,22.912-78.624,26.88
	c-0.992,0.00-15.904-4.96-19.872-6.976c-4.992-1.984-16.928-8.928-21.92-12.928c-4.96-4.96-10.976-13.952-13.952-21.92
	c-8.96-22.88-9.984-38.816-5.984-53.76c 3.968-15.904, 13.952-38.784, 41.824-62.656c 26.848-23.904, 76.608-58.752, 129.344-62.72
	c 51.744-4.96, 76.64,4.96, 121.44,24.864c 21.888,8.96, 36.768,14.944, 45.76,16.928c 75.648,19.904, 138.304-10.976, 171.20-47.776
	c 24.864-28.832, 5.984-62.688-28.864-54.72c-1.984,0.992-4.992,1.984-9.984,0.992s-7.968-1.984-9.952-0.992
	c-1.984,0.00-5.984-0.992-10.976-3.008c-4.96-2.976-8.928-3.968-10.912-4.96c-4.96-1.984-18.912-10.944-25.888-14.944
	c-6.976-3.968-20.896-12.928-28.864-18.912s-23.872-17.92-34.848-24.864l-0.992,0.00 c-54.72-40.768-184.096-60.672-252.736-44.768
	c 0.96,0.00, 0.96-0.992, 1.984-1.984c 55.744-36.832, 75.648-51.776, 148.288-87.584c 72.672-35.808, 118.432-45.792, 198.048-45.792
	c 79.584-0.992, 142.272,25.888, 218.944,92.576c 38.784,32.832, 74.624,75.616, 109.472,128.384c 10.944,20.896, 15.904,23.872, 14.944,8.928
	c0.00-4.96-7.968-40.80-23.904-109.44c-3.968-14.944-4.96-22.912-3.008-21.92c 40.80,27.872, 72.672,95.52, 84.608,168.192
	c 10.944,72.64, 15.936,158.208, 4.96,221.92c 25.888-11.936, 45.824-34.848, 59.712-69.696c 1.984-3.968, 3.008-4.928, 4.00-2.976
	c 28.864,87.584, 34.848,253.792, 6.976,348.352c 26.88-7.968, 57.696-44.80, 70.624-69.696l 10.976-19.904c-30.88,148.288-114.432,257.76-250.784,326.432
	c-41.824,20.896-91.552,37.824-149.28,50.72c 52.736,15.936, 120.416,24.864, 155.264,24.864l 24.864,0.992c-12.928,19.904-57.728,40.80-104.48,53.76
	c-46.784,12.928-93.60,25.888-123.392,31.872c-14.944,2.976-22.912,3.968-22.912,3.968l-4.96,0.00 l 5.984,0.00 c 8.96,3.008, 23.904,4.96, 42.784,5.984
	c 37.824,3.008, 151.264-9.952, 267.68-48.768c 64.704-20.896, 125.408-65.696, 161.248-108.48c 34.816-42.784, 60.704-84.608, 71.648-109.44l 7.936-18.944
	c-0.992,3.008,0.00,8.96, 0.992,16.928c 1.984,14.912-8.928,72.64-32.832,128.384c 0.992,0.00, 3.008,0.00, 4.00,0.00c 0.992-0.992, 4.96-3.008, 9.952-7.968
	c 4.992-4.96, 9.984-11.936, 15.936-20.896c 10.912-17.92, 30.848-58.72, 51.712-111.424c 20.896-54.752, 45.824-189.12, 57.76-273.696L 1767.424,821.448z"  />
<glyph unicode="&#xf212;" d="M 641.184,475.016l 710.88,0.00 l 434.528,0.00 c 3.264,33.536, 5.44,63.808, 5.44,90.816c0.00,146.112-36.832,280.256-110.528,404.672
	c 73.696,189.312, 68.256,353.728-26.016,447.84c-60.672,60.608-186.368,74.656-351.072,40.064C 1220.928,1441.128, 1134.24,1413.00, 1043.232,1372.968
	c-27.104,1.088-47.68,2.112-61.76,2.112c-186.40,0.00-366.272-65.984-501.728-174.144c-135.456-108.192-239.52-263.936-282.848-438.112
	c 121.344,155.744, 247.072,263.968, 410.72,341.856c-5.472-4.32-24.96-23.808-58.528-57.344c-34.688-34.592-55.264-54.048-60.672-59.456
	C 319.328,819.048, 180.608,611.336, 103.68,430.696c-76.928-180.672-114.88-350.496-100.768-470.592c 14.08-121.184, 82.336-186.08, 198.304-205.568
	c 116.00-19.488, 254.688,12.96, 413.984,90.88c 117.024-58.432, 239.488-87.648, 366.272-87.648c 232.96,0.00, 450.784,99.52, 600.32,265.088
	c 74.784,82.176, 130.016,176.352, 165.824,282.336L 1309.792,305.192 c-60.672-113.60-179.872-187.168-313.152-187.168c-133.312,0.00-252.512,73.568-313.152,187.168
	c-28.192,51.904-42.272,108.192-42.272,168.768L 641.216,475.016 z M 1321.76,687.048L 642.272,687.048 c 9.728,180.672, 158.176,321.312, 339.20,321.312
	C 1162.40,1008.36, 1311.968,867.72, 1321.76,687.048z M 1652.256,1328.584c 59.552-61.664, 62.816-168.736, 7.552-319.136
	c-91.008,138.432-222.112,245.60-377.088,307.264C 1450.656,1390.248, 1579.616,1396.744, 1652.256,1328.584z M 173.024-148.12c-76.96,82.208-56.32,241.28, 47.68,443.552
	c 60.672-176.352, 183.136-323.456, 343.52-421.92C 385.44-207.64, 247.808-217.336, 173.024-148.12z"  />
<glyph unicode="&#xf213;" d="M 841.024,1541.00C 598.816,1541.00, 384.64,1450.152, 236.64,1297.672C 88.608,1144.04,0.00,916.36,0.00,652.84c0.00-187.296, 53.824-371.20, 153.632-522.56
	c 98.688-151.392, 233.248-269.152, 409.312-333.056C 651.52-235.32, 743.456-251.00, 841.024-251.00c 197.376,0.00, 381.28,68.416, 516.96,182.784
	c 135.68,114.40, 238.88,266.912, 291.552,446.304c 25.824,88.608, 39.264,180.576, 39.264,274.752c0.00,264.672-90.816,493.408-241.088,645.952
	C 1297.44,1451.272, 1082.144,1541.00, 841.024,1541.00z M 1152.768,668.552c0.00-77.376-1.12-127.84-5.60-209.728c-4.512-81.856-12.352-136.80-26.912-210.816
	c-14.592-74.016-34.784-123.36-66.176-176.064c-32.512-53.856-70.624-85.216-124.48-106.528c-26.912-10.08-56.064-15.712-88.608-15.712
	c-62.784,0.00-116.608,23.552-155.84,56.096c-39.264,32.512-69.536,91.936-90.848,145.792c-21.312,53.824-34.784,136.80-42.624,198.464
	c-7.84,61.696-12.32,156.992-13.44,215.328c-1.12,29.152-1.12,63.936-1.12,103.20c0.00,108.736, 3.328,187.264, 13.44,285.952
	c 10.08,97.568, 26.944,165.984, 58.304,235.488c 30.272,69.536, 70.656,111.04, 130.08,137.952c 30.272,13.44, 63.904,20.192, 102.016,20.192
	c 76.288,0.00, 137.952-29.152, 180.576-74.016c 42.592-45.984, 75.136-118.848, 94.176-193.984c 17.952-75.136, 30.272-177.152, 34.784-265.76
	C 1151.648,770.60, 1152.768,721.256, 1152.768,668.552z"  />
<glyph unicode="&#xf214;" d="M 841.056,1428.872c-39.264,0.00-80.736-3.36-124.48-8.992l-2.24,4.512c 50.464,36.992, 32.544,84.096, 2.24,103.168
	C 702.016,1536.488, 684.064,1541.00, 662.752,1541.00c-8.96,0.00-17.952-1.12-28.032-3.36c-52.672-12.32-87.456-49.344-79.616-88.576
	c 5.632-23.552, 23.552-39.264, 53.856-47.136l0.00-5.60 C 253.44,1294.28,0.00,969.096,0.00,588.936c0.00-227.648, 96.448-445.184, 246.72-594.336S 612.288-251.00, 841.056-251.00
	c 227.648,0.00, 444.064,96.448, 594.336,245.60c 150.24,149.152, 245.60,366.688, 245.60,594.336c0.00,227.616-95.328,445.184-245.60,594.336
	C 1285.12,1332.392, 1068.704,1428.872, 841.056,1428.872z M 583.136,1455.784c-4.48,22.40, 21.312,47.104, 58.304,54.944c 8.992,1.12, 15.712,2.24, 21.312,2.24
	c 28.032,0.00, 50.464-12.352, 53.856-29.152c 2.208-13.472-4.512-25.792-20.192-38.112c-25.824,19.072-61.696,11.232-79.616-16.80
	C 596.608,1434.472, 585.376,1443.432, 583.136,1455.784z M 1290.752,138.12c-77.376-77.376-167.104-130.08-271.36-160.352l-74.016,119.968l-19.072-140.16
	c-31.392-3.36-59.424-5.632-85.216-5.632c-170.464,0.00-330.816,66.144-450.816,186.144c-77.376,77.376-131.20,168.224-161.472,272.512l 119.968,73.984
	l-139.04,19.104c-4.512,28.032-6.752,57.184-6.752,85.216c0.00,348.736, 248.96,549.472, 458.656,612.288l 74.016-121.12l 19.072,140.192
	c 31.392,3.36, 59.424,5.60, 85.216,5.60c 170.464,0.00, 330.816-66.144, 450.816-186.112c 77.376-77.408, 131.20-168.224, 161.472-272.512l-119.968-74.016
	l 139.04-19.072c 4.512-28.032, 6.752-56.064, 6.752-85.216C 1478.016,415.112, 1415.232,264.84, 1290.752,138.12z M 1013.76,679.752l 262.40,344.288L 931.904,762.76
	c-25.824,13.472-53.856,21.312-83.008,22.432l-89.728,187.264L 753.60,765.00c-21.312-10.08-41.504-25.824-60.576-47.104l-111.008,39.232l 80.704-85.216
	c-10.08-22.40-16.80-47.104-17.952-75.136l-187.296-89.728l 207.456-4.48c0.00-1.12, 1.12-3.36, 2.24-4.512l-262.40-344.288l 344.256,261.312
	c 25.824-13.472, 53.856-21.312, 83.008-22.432l 89.728-187.296l 5.60,207.456c 23.552,12.352, 43.744,28.032, 60.576,47.104l 111.008-39.264l-80.704,85.216
	c 10.08,22.432, 16.80,47.136, 17.952,75.168l 187.296,89.696l-207.456,5.632C 1016.00,677.544, 1014.88,678.664, 1013.76,679.752z M 841.056,757.128L 841.056,762.76 
	L 841.056,757.128 z M 805.184,753.768c 12.32,2.24, 24.672,3.328, 35.872,3.328c 2.24,0.00, 5.60,0.00, 11.232,0.00c 4.48-1.088, 7.84-1.088, 10.08-1.088l0.00,0.00
	c 14.56-2.24, 29.152-6.752, 43.712-12.352l-124.48-95.328l-95.328-125.60c-4.512,10.08-7.84,21.28-10.08,31.36
	C 657.152,645.00, 714.336,734.728, 805.184,753.768z M 928.544,445.384L 928.544,445.384c-36.992-21.28-62.816-24.672-88.608-24.672
	c-2.24,0.00-5.60,0.00-10.08,1.12c-5.60,0.00-8.96,0.00-11.232,0.00l0.00,1.12 l0.00-1.12 c-14.56,2.24-29.152,6.72-43.712,12.352l 124.48,95.328l 95.328,125.60
	c 4.512-10.08, 7.84-21.312, 10.08-31.392C 1019.36,553.064, 987.968,481.288, 928.544,445.384z"  />
<glyph unicode="&#xf215;" d="M 1536.00,1125.00l0.00-960.00 c0.00-79.328-28.224-147.20-84.64-203.36C 1395.20-94.776, 1327.328-123.00, 1248.00-123.00L 288.00-123.00 c-79.328,0.00-147.168,28.224-203.52,84.64
	C 28.128,17.80,0.00,85.672,0.00,165.00L0.00,1125.00 c0.00,79.328, 28.128,147.136, 84.48,203.552C 140.832,1384.872, 208.672,1413.00, 288.00,1413.00l 960.00,0.00 c 79.328,0.00, 147.20-28.128, 203.36-84.448
	C 1507.776,1272.136, 1536.00,1204.328, 1536.00,1125.00z M 494.464,371.496c-27.136,27.104-60.16,40.80-98.976,40.80c-38.688,0.00-71.648-13.728-98.848-40.80
	C 269.504,344.36, 256.00,311.336, 256.00,272.52c0.00-38.688, 13.504-71.68, 40.672-98.88C 323.84,146.504, 356.80,133.00, 395.488,133.00c 38.816,0.00, 71.84,13.504, 98.976,40.672
	c 27.104,27.20, 40.768,60.192, 40.768,98.88C 535.264,311.336, 521.568,344.36, 494.464,371.496z M 848.992,405.672
	c-32.64,70.816-76.672,133.728-131.968,188.448c-54.72,55.328-117.60,99.36-188.416,132.00c-70.784,32.672-144.96,52.32-222.432,58.432L 302.464,784.552 
	c-12.576,0.00-23.04-4.00-31.264-12.224C 261.12,763.528, 256.00,752.168, 256.00,738.088l0.00-98.208 c0.00-12.192, 4.00-22.432, 12.00-31.36
	c 8.00-8.64, 18.08-13.44, 30.176-14.40c 111.04-10.592, 205.952-55.488, 284.672-134.208c 78.688-78.72, 123.584-173.60, 134.176-284.672
	c 0.928-12.096, 5.792-22.176, 14.464-30.176C 740.352,137.00, 750.592,133.00, 762.816,133.00l 98.176,0.00 c 14.048,0.00, 25.504,5.12, 34.176,15.232
	c 9.312,9.728, 13.312,21.28, 12.352,34.976C 901.28,260.68, 881.632,334.92, 848.992,405.672z M 1192.672,546.472
	c-51.936,116.032-123.136,219.20-213.888,309.408c-90.24,90.72-193.28,161.92-309.312,213.856c-116.128,51.872-237.824,80.96-364.80,87.296L 302.464,1157.032 
	c-12.576,0.00-23.264-4.416-32.00-13.152C 260.832,1135.144, 256.00,1124.008, 256.00,1110.504l0.00-104.00 c0.00-12.128, 4.192-22.816, 12.672-31.776
	c 8.512-8.928, 18.784-13.60, 30.88-14.08c 104.288-6.24, 203.328-31.04, 297.056-74.112c 93.92-43.136, 175.296-99.296, 244.448-168.416
	c 69.088-69.12, 125.216-150.592, 168.384-244.448c 43.136-93.76, 67.552-192.80, 73.344-297.12c 0.608-12.064, 5.248-22.336, 14.208-30.88
	C 1105.92,137.192, 1116.672,133.00, 1129.408,133.00l 103.968,0.00 c 13.472,0.00, 24.672,4.832, 33.44,14.464c 9.728,9.728, 14.016,21.056, 13.024,34.176
	C 1273.60,308.68, 1244.544,430.376, 1192.672,546.472z" horiz-adv-x="1536"  />
<glyph unicode="&#x20;" horiz-adv-x="896" />
<glyph class="hidden" unicode="&#xf000;" d="M0,1541L 1792 -251L0 -251 z" horiz-adv-x="0" />
</font>
</defs>
</svg>
